* Cantinho Satkeys

Refresh History
  • j.s.: dgtgtr a todos  4tj97u<z
    Hoje às 14:15
  • FELISCUNHA: ghyt74  pessoal   49E09B4F
    Hoje às 11:06
  • j.s.: ghyt74 a todos  4tj97u<z
    19 de Outubro de 2020, 09:25
  • FELISCUNHA: Votos de um santo domingo para todo o auditório  4tj97u<z
    18 de Outubro de 2020, 11:25
  • j.s.: dgtgtr a todos  4tj97u<z
    17 de Outubro de 2020, 16:17
  • FELISCUNHA: ghyt74  e  bom fim de semana   4tj97u<z
    17 de Outubro de 2020, 10:23
  • FELISCUNHA: dgtgtr  pessoal   49E09B4F
    16 de Outubro de 2020, 14:43
  • andre pakete: bom dia a todos e muito obrigados abraços
    16 de Outubro de 2020, 10:58
  • andre pakete: bom dia a todos
    16 de Outubro de 2020, 09:45
  • FELISCUNHA: ghyt74  pessoal   49E09B4F
    14 de Outubro de 2020, 11:17
  • boavisteiro: Muito boa tarde
    13 de Outubro de 2020, 16:01
  • j.s.: dgtgtr a todos  4tj97u<z
    13 de Outubro de 2020, 15:52
  • andre pakete: bom dia a todos e muito obrigados
    13 de Outubro de 2020, 11:23
  • andre pakete: bom dia a todos e muito obrigados
    13 de Outubro de 2020, 11:18
  • FELISCUNHA: ghyt74  pessoal   49E09B4F
    12 de Outubro de 2020, 09:40
  • j.s.: try65hytr a todos  49E09B4F
    11 de Outubro de 2020, 22:02
  • andre pakete: boa noite a todos voces e abraços
    11 de Outubro de 2020, 21:38
  • hugoalves: podiam arranjar dvds do karaoke
    11 de Outubro de 2020, 18:08
  • hugoalves: ola boa noite
    11 de Outubro de 2020, 18:07
  • hugoalves: ola
    11 de Outubro de 2020, 18:05

Autor Tópico: London.Boulevard.2010.1080p.BluRay.x265  (Lida 558 vezes)

0 Membros e 1 Visitante estão a ver este tópico.

Online van damme

  • Moderador
  • ***
  • Mensagens: 244
  • Karma: +0/-0
London.Boulevard.2010.1080p.BluRay.x265
« em: 17 de Outubro de 2020, 11:14 »


GENERAL INFO
ID : 1
Format : HEVC
Format/Info : High Efficiency Video Coding
Format profile : Main 10@L4@Main
Codec ID : hev1
Codec ID/Info : High Efficiency Video Coding
Duration : 1 h 43 min
Bit rate : 2 000 kb/s
Width : 1 920 pixels
Height : 1 040 pixels
Display aspect ratio : 1.85:1
Frame rate mode : Constant
Frame rate : 24.000 FPS
Color space : YUV
Chroma subsampling : 4:2:0
Bit depth : 10 bits
Bits/(Pixel*Frame) : 0.042
Stream size : 1.44 GiB (90%)
Writing library : x265 3.3+4-rarbg-30eb4de83092:[Linux][GCC 8.3.1][64 bit] 10bit

SCREENSHOTS


Código: [Seleccione]
https://www.imdb.com/title/tt1213648/MEDIAINFO
ID : 2
Format : AAC LC
Format/Info : Advanced Audio Codec Low Complexity
Codec ID : mp4a-40-2
Duration : 1 h 43 min
Bit rate mode : Constant
Bit rate : 224 kb/s
Channel(s) : 6 channels
Channel layout : C L R Ls Rs LFE
Sampling rate : 48.0 kHz
Frame rate : 46.875 FPS (1024 SPF)
Compression mode : Lossy
Stream size : 165 MiB (10%)
Language : English
Default : Yes

Só visivel para registados e com resposta ao tópico.

Online Verdegaio

  • Membro Satkeys
  • *
  • Mensagens: 3234
  • Karma: +0/-0
Re: London.Boulevard.2010.1080p.BluRay.x265
« Responder #1 em: 18 de Outubro de 2020, 15:41 »
Obrigado