collapse

* Cantinho Satkeys

Refresh History
  • Radio TugaNet: boas
    24 de Maio de 2019, 23:25
  • cereal killa: try65hytr pessoal  r4v8p
    24 de Maio de 2019, 22:09
  • FELISCUNHA: ghyt74 pessoal  k8h9m
    24 de Maio de 2019, 11:13
  • FELISCUNHA: ghyt74 pessoal  4tj97u<z
    23 de Maio de 2019, 09:46
  • FELISCUNHA: ghyt74 pessoal  49E09B4F
    22 de Maio de 2019, 10:37
  • henrike: Antes de ir votar, confirme o local de voto. Alguns foram alterados   [link]
    21 de Maio de 2019, 21:08
  • Radio TugaNet: boas
    21 de Maio de 2019, 20:02
  • Glauciano: bom
    21 de Maio de 2019, 14:48
  • FELISCUNHA: dgtgtr pessoal  49E09B4F
    21 de Maio de 2019, 14:00
  • cereal killa: try65hytr pessoal  r4v8p
    20 de Maio de 2019, 21:34
  • oscarmarroquino: ola a todos boa tarde
    20 de Maio de 2019, 19:53
  • FELISCUNHA: dgtgtr pessoal  49E09B4F
    20 de Maio de 2019, 12:05
  • maltatoda: Olá bom dia
    20 de Maio de 2019, 09:37
  • j.s.: try65hytr a todos
    19 de Maio de 2019, 23:00
  • vitoriano: boa tarde a todos membros
    19 de Maio de 2019, 18:25
  • FELISCUNHA: dgtgtr  49E09B4F e continuação de bom domingo  4tj97u<z
    19 de Maio de 2019, 17:28
  • boavisteiro: Muito boa tarde
    19 de Maio de 2019, 17:18
  • djmuletas: boa tarde
    19 de Maio de 2019, 15:28
  • Alex-Santos: Olá bom dia bom domingo     49E09B4F      101yd91
    19 de Maio de 2019, 11:31
  • andre pakete: muito obrigados a todos voces por tudo
    18 de Maio de 2019, 22:12

* radio

22 de Maio de 2019, 10:10 por mitsumi | Views: 50 | Comments: 0


TTC Video - Practicing Mindfulness: An Introduction to Meditation
24xWEBRip | English | M4V | 640 x 480 | AVC ~1500 kbps | 29.970 fps
AAC | 128 kbps | 44.1 KHz | 2 channels | 12:29:57 | 8.55 GB
Genre: eLearning / Education lectures: Psychology, Meditation
What is meditation? For thousands of years, human beings have practiced refined techniques of mental focusing, designed to change the habitual conditioning of the mind. Central to many spiritual and philosophical traditions and known in English as "meditation," these practices are considered a major means for enhanced awareness and self-mastery.

In recent decades, modern science has dramatically confirmed what advanced meditators have long claimed-that meditation, correctly practiced, offers deep and lasting benefits for mental functioning and emotional health, as well as for physical health and well-being.

The many practical benefits of meditation include
marked and lasting reduction of stress;
increased ability to focus and concentrate, as well as clarity of thinking;
freedom from detrimental patterns of thought and emotion;
increased learning capacity and memory; and
greatly enhanced well-being and peacefulness.
If practiced consistently, the results are real and very far-reaching. In the largest sense, meditation allows you to live in harmony with the realities of the world-to embrace life's ever-changing impermanence, to live in equanimity with the inevitable ups and downs of being human, and to feel deeply connected to the whole of life.

Now, in Practicing Mindfulness: An Introduction to Meditation, award-winning Professor Mark W. Muesse of Rhodes College takes you on a dynamic exploration of your own mind, giving you a clear and useable understanding of the essence of meditation and how to practice it.

In 24 detailed lectures, using numerous guided exercises, Professor Muesse teaches you the principles and techniques of sitting meditation, the related practice of walking meditation, and the highly beneficial use of meditative awareness in many important activities, including eating and driving. As a major strength of the course, you learn in depth how to use the skills of meditation in working with thoughts and emotional states, in deepening sensory awareness of the body, and in becoming deeply attentive to the operation of your mind. Emphasizing clarity and practical understanding, this course will leave you with a solid basis for your own meditation practice and for bringing meditation's remarkable and empowering benefits to every area of your life.

        "Mindfulness"-The Eye of the Witness"

Meditation, as you learn it here, is closely related to the notion of "mindfulness." In Professor Muesse's words, "Mindfulness is a deliberate way of paying attention to what is occurring within oneself as it is happening. It is the process of attentively observing your experience as it unfolds, without judgment or evaluation."

"Meditation," he adds, "refers to certain exercises that can be used to enlarge and refine mindfulness." Meditation cultivates mindfulness by training you to develop deep attention to the present moment, allowing the mind to become settled and centered.

With the ongoing practice of meditation, you gain the ability to bring the liberating effects of mindful awareness to moment-to-moment living. Ultimately, this means developing a mind of openness and flexibility, profound physical calmness, and a deepening freedom to choose how you respond to life.

Throughout the lectures of this course, you practice the principles of mindfulness through focused meditations and guided exercises, including these:
Sitting meditation: The core practice of the mindfulness tradition. You learn the specific methods of meditation with mindful awareness.
Body scan meditation: A second fundamental practice, bringing deep focus to the body and bodily sensations, promoting both concentration and physical relaxation.
Mindful engagement with thoughts: You learn four specific practices for releasing detrimental patterns of thought.
Metta meditation: Central to the mindfulness tradition, you learn this form of directed contemplation, focusing on the well-being of others and powerfully effective for cultivating compassion.
Meditations for physical pain: You practice two forms of meditation for alleviating pain and physical discomfort of all kinds.
The Insights of Meditation in Action
Building on your practice-based understanding, Professor Muesse takes the exploration into many different areas of life, showing you in depth how meditation and mindfulness apply to daily living.

Early in the course, you practice meditative awareness in the act of eating, in an exercise vividly highlighting all five senses. This exercise uncovers a richness of experience that usually goes unexplored and illustrates one of meditation's significant benefits-being deeply present in the moments of your own life.

You study the mindfulness tradition's approach to difficult emotions, using the example of anger. Here you find a way of disarming anger that builds on meditation, based in nonjudgmental attention, conscious acceptance, and the mental spaciousness to choose your response.

In the course's second half, you explore how mindfulness is used both in building qualities of personal character and in facing life's most challenging experiences. In individual lectures, you learn specific practices for cultivating generosity, empathy, and the beneficial use of speech, and for dealing with the inevitability of loss and grief.

Clarity on the Nature of Reality

As a core theme of this course, you delve into one of the most revealing and practical benefits of mindfulness-the freedom that comes with rigorous clarity about the nature of reality. Drawing on what Buddhism calls the "three marks of existence,"
you see how our conditioned resistance to the transience and passing away of all things causes suffering, and how mindfulness practice allows you to freely and joyfully embrace life's impermanence;
you explore the ways in which mindful awareness gives you freedom from the "insatiable" quality of human experience-the tendency to endlessly pursue the outward symbols of happiness and achievement;
you look at the factors that determine the sense of separateness that burdens many people, and how mindfulness practice leads to a fundamental experience of connectedness to the whole.
The Power of Living Mindfully

An expert in Eastern philosophies, Professor Muesse is the rare teacher with both extensive academic credentials and decades of experience as a meditator, having studied and practiced with meditation masters in Thailand, Nepal, and Sri Lanka. He enriches your experience with compelling reflections on his own journey with mindfulness practice, filmed demonstrations of key techniques, and enthralling stories and perspectives from the great spirits of history.

You hear the Buddha's penetrating counsel to a woman in the throes of grief, and Rilke's passionate words on the necessity of giving joyful consent to all of life. You hear about Professor Muesse's own transformative experience with the practice of generosity, and you contemplate the Zen parable of a man caught between two hungry tigers, highlighting the existential choices we all face in living rich and satisfying lives and in savoring life to the full.

In Practicing Mindfulness: An Introduction to Meditation, Professor Muesse offers you a rare and extraordinary opportunity. By grasping the essential nature of meditation and mindful awareness within the setting of specific, grounded practice, you deepen the power to shape your own mind and experience, to know a well-being that is not ruled by circumstances, and to find yourself truly and lastingly at home in the world.

Join Professor Muesse in this empowering journey of the spirit-the art of living at its most fulfilling, expansive, and meaningful.   

Course Lecture Titles:

Mindlessness-The Default Setting
Do you control your mind, or does your mind control you? Investigate how the mind operates and the condition of "mindlessness"-the pervasive swirl of thoughts and judgments that separate you from the world around you. Consider the possibility of cultivating the mind in ways conducive to deep well-being for yourself and others.
Mindfulness-The Power of Awareness
Explore the notion of "mindfulness"-nonjudgmental attention to experience-as it occurs in everyday life and as a deliberate practice. Note the many benefits of mindfulness practice, from the freedom to choose how you respond to life, to releasing detrimental emotions and patterns of thinking, to its effects on your physical health.
Expectations-Relinquishing Preconceptions
This lecture introduces the practice of meditation as a tool for developing mindfulness. Here, distinguish the true nature of mindfulness meditation from common preconceptions about it, revealing its capacity to instill a deeper connection to reality, as well as cultivating a wisdom based in empathy and compassion.
Preparation-Taking Moral Inventory
In approaching meditation, consider the interconnections of ethical behavior with the development of mindfulness and the shaping of personal character. Drawing from the Buddha's teachings, explore five precepts of behavior that are conducive to the greatest benefits of meditation practice, based in the fundamental principle of not harming others or yourself.
Position-Where to Be for Meditation
Now learn about the most beneficial physical conditions for your meditation. First, consider the time of day and the physical setting that will best serve your practice. Then, study the most effective sitting postures on the floor, cushions, or chair and the optimum alignment of the body for mindfulness meditation.
Breathing-Finding a Focus for Attention
Mindfulness meditation is based in the use of an anchor or focus of attention, allowing the mind to calm itself. Using your breathing as the focus, learn in detail about the fundamental elements of sitting meditation, focusing attention on the breath and returning to it when the mind strays, without judgment.
Problems-Stepping-Stones to Mindfulness
Here, explore difficulties often encountered in meditation and ways of working with them that are also useful in the larger context of living. Consider physical discomfort and the specific use of mindfulness itself in working through it. Look also at ways to strengthen concentration and to counter frustration and discouragement.
Body-Attending to Our Physical Natures
Building on your work with mindfulness practice, learn another technique that augments and supports meditation. The "body scan" directs focused attention to different areas of the body, promoting deeper sensory awareness, relaxation, and concentration. With Professor Muesse's guidance, experience a 20-minute body scan meditation, a fundamental practice of self-compassion.
Mind-Working with Thoughts
The mindfulness tradition has much to say on the nature of thoughts and their power to shape personality and character. Here, learn specific ways to identify detrimental thoughts and a variety of methods to work with them, demonstrating that you can influence the conditioned mind through conscious and deliberate response to your own thoughts.
Walking-Mindfulness While Moving
Walking meditation, another core element of the mindfulness tradition, allows you to practice mindfulness wherever and whenever you go. Learn walking meditation in detail, including beneficial conditions for practice, the method of mindful walking, where to focus your attention, and advanced variations on the practice.
Consuming-Watching What You Eat
When approached with mindfulness, eating offers heightened awareness and undiscovered depth of experience. This lecture takes you on a rich exploration of mindful eating, beginning with an eating "meditation," using all five senses. Then contemplate mindful eating in daily life and detailed suggestions for sharing a fully mindful meal with others.
Driving-Staying Awake at the Wheel
As a familiar and potentially hazardous activity, driving provides a perfect "laboratory" for practicing mindfulness. Assess your own approach to driving and bring the principles of meditation to bear on the road; in particular, giving focused attention to the present moment, to your sensory experience and emotions.
Insight-Clearing the Mind
Practicing mindfulness over time prepares the mind for "insight," which in this tradition means seeing clearly into the fundamental nature of reality. Begin an inquiry into what Buddhism calls the three "marks" of existence with the notion of impermanence-the eternal arising and passing away of all phenomena.
Wisdom-Seeing the World as It Is
Now investigate dukkha, the insatiable quality of human experience-seen in our endless pursuit of the symbols of well-being and achievement and avoidance of unwanted experience. Finally, contemplate not-self-penetrating the illusion of the "I" as an entity separate from the rest of reality, which must be bolstered, protected, and satisfied.
Compassion-Expressing Fundamental Kindness
With relation to mindfulness practice, explore compassion-the desire to alleviate suffering-as an essential component of our nature as human beings. See how compassion allows us to look at suffering without aversion or attachment, and learn specific practices for developing empathy and deeply recognizing the inner experience of others.
Imperfection-Embracing Our Flaws
Finding compassion for ourselves is greatly challenging for many of us. Consider the complex of beliefs, attitudes, and conditioning that underlie this; in particular, the thorny phenomenon of perfectionism. Learn how to embrace and accept both imperfection and perfectionism itself as an opening to freedom and deeper humanity.
Wishing-May All Beings Be Well and Happy
The mindfulness tradition offers an additional practice that is highly effective in revealing and cultivating compassion. With Professor Muesse's guidance, experience metta meditation, a focused contemplation wishing well-being and peace for others. See how this practice works to relinquish alienation and hostility and to deepen solidarity with all humanity.
Generosity-The Joy of Giving
Here, study the mindfulness tradition's insights concerning attachment to "things," our culture's dominant emphasis on possessions, and the psychological roots of greed. Learn about the Buddhist tradition of dana (sharing with others) and specific practices that reveal the life-giving effects of generosity on the giver and receiver.
Speech-Training the Tongue
Mindfulness practice brings focus to the critical link between speech and behavior. Consider the ways in which both inner experience and outward action are influenced by our use of language. Reflecting on four Buddhist principles of skillful communication, explore mindful attention to speaking and the use of language in genuinely beneficial ways.
Anger-Cooling the Fires of Irritation
This lecture discusses the challenges of dealing with anger and ways to disarm it using the skills you've studied. Reflect on our cultural predisposition to either suppress anger or to express it thoughtlessly, and a third way offered by mindfulness, of nonjudgmental observation, acceptance, and the mental spaciousness to choose your response.
Pain-Embracing Physical Discomfort
The skills of mindfulness offer powerful means to work with physical discomfort of all kinds. Consider the crucial distinction between pain and suffering as it directly affects our perceptions. Then experience two meditations for alleviating physical suffering-first, focusing on observing the exact sensation itself, then, on your response to the sensation.
Grief-Learning to Accept Loss
In reflecting on the universality of loss, take a deeper look at the notion of impermanence and how refusal to embrace life's transience affects our experience of living. Learn how mindfulness approaches grief through centering focus in the present moment and fully experiencing what grief brings to us without fear or aversion.
Finitude-Living in the Face of Death
The mindfulness tradition considers reflecting on death to be both liberating and essential to living a full and satisfying life. Contemplate the ways in which our culture conditions us to avoid and deny death, and learn four meditations that deepen both the awareness of life's transience and our ability to live freely.
Life-Putting It All in Perspective
Finally, consider various possibilities for continuing your practice through the methods you've learned, further study, and retreats. Professor Muesse concludes with reflections on his own path and on the very real capacity of mindfulness practice to profoundly alter our perceptions of self, the world, and our place in it.

        General
Complete name                            : TGC_1933_Lect21-21. Pain-Embracing Physical Discomfort.m4v
Format                                   : MPEG-4
Codec ID                                 : M4V  (isom/avc1/mp42)
File size                                : 408 MiB
Duration                                 : 34mn 55s
Overall bit rate mode                    : Variable
Overall bit rate                         : 1 633 Kbps
Collection                               : Practicing Mindfulness
Season                                   : 1933
Album                                    : Practicing Mindfulness
Album/Sorted by                          : Practicing Mindfulness
Album/Performer                          : The Great Courses
Album/Performer/Sort                     : The Great Courses
Part                                     : 21
Part/Position                            : 1
Part/Total                               : 1
Track name                               : Lect.21 Pain-Embracing Physical Discomfort
Track name/Url                           :
Track name/Position                      : 21
Track name/Total                         : 24
Grouping                                 : Practicing Mindfulness
Compilation                              : Yes
Compilation                              : Yes
Performer                                : Prof. Mark W. Muesse
Performer/Sorted by                      : Prof. Mark W. Muesse
Composer                                 : The Great Courses
Genre                                    : Books & Spoken
ContentType                              : TV Show
Recorded date                            : 2011
Encoded date                             : UTC 2011-10-07 06:28:14
Tagged date                              : UTC 2011-11-14 14:54:45
Copyright                                : The Teaching Company, LLC
Cover                                    : Yes
Part_ID                                  : Lect.21 Pain-Embracing Physical Discomfort
rati                                     : (Binary)
Composer/Sort                            : The Great Courses
Title/Sort                               : Practicing Mindfulness / Lect.21 Pain-Embracing Physical Discomfort

Video
ID                                       : 1
Format                                   : AVC
Format/Info                              : Advanced Video Codec
Format profile                           : Baseline@L3
Format settings, CABAC                   : No
Format settings, ReFrames                : 1 frame
Format settings, GOP                     : M=1, N=80
Codec ID                                 : avc1
Codec ID/Info                            : Advanced Video Coding
Duration                                 : 34mn 55s
Bit rate mode                            : Constant
Bit rate                                 : 1 500 Kbps
Maximum bit rate                         : 3 902 Kbps
Width                                    : 640 pixels
Height                                   : 480 pixels
Display aspect ratio                     : 4:3
Frame rate mode                          : Constant
Frame rate                               : 29.970 (30000/1001) fps
Color space                              : YUV
Chroma subsampling                       : 4:2:0
Bit depth                                : 8 bits
Scan type                                : Progressive
Bits/(Pixel*Frame)                       : 0.163
Stream size                              : 375 MiB (92%)
Encoded date                             : UTC 2011-10-07 06:28:14
Tagged date                              : UTC 2011-10-07 06:28:14

Audio
ID                                       : 2
Format                                   : AAC
Format/Info                              : Advanced Audio Codec
Format profile                           : LC
Codec ID                                 : 40
Duration                                 : 34mn 55s
Bit rate mode                            : Variable
Bit rate                                 : 128 Kbps
Maximum bit rate                         : 138 Kbps
Channel(s)                               : 2 channels
Channel positions                        : Front: L R
Sampling rate                            : 44.1 KHz
Frame rate                               : 43.066 fps (1024 spf)
Compression mode                         : Lossy
Stream size                              : 31.4 MiB (8%)
Encoded date                             : UTC 2011-10-07 06:28:14
Tagged date                              : UTC 2011-11-14 14:54:45   

ScreenShots
   




Download link:
Só visivel para registados e com resposta ao tópico.

Links are Interchangeable - No Password - Single Extraction
22 de Maio de 2019, 10:08 por mitsumi | Views: 52 | Comments: 0


Troubleshooting Cisco Video Collaboration Endpoints
.MP4, AVC, 1280x720, 30 fps | English, AAC, 2 Ch | 2h 40m | 309 MB
Instructor: Sean Douglas

In today's fast-paced world, the ability to communicate using real-time IP voice and video technology is a business necessity. More than ever, businesses need dynamic video solutions. Cisco is leading this technological revolution. Cisco TelePresence creates an immersive face-to-face experience that lets users collaborate like never before. In Troubleshooting Cisco Video Collaboration Endpoints, you will examine the troubleshooting process for endpoints, servers, networks, and conferencing technology used in Cisco video networks deployments. Next, you'll be able to configure traces and examine logs on Cisco Unified Communications Manager and Cisco VCS. Finally, you'll learn about the command line options available to manage and maintain a Cisco collaboration solution. When you're finished with this course, you'll be better able to troubleshoot Cisco video conference deployments and be prepared to pass the CIVND exam. Software required: none
                                   

               

Download link:
Só visivel para registados e com resposta ao tópico.

Links are Interchangeable - No Password - Single Extraction
22 de Maio de 2019, 09:00 por mihailkushnirv | Views: 55 | Comments: 0


Quality: SD
SiteRip type: 480p
Format: MPEG-4
Video: 854x480
Sound: AAC LC; 48.0 kHz; 64.0 kb / s
Size: 312 MB

https://turbo.to/t4x7euk6j2z5.html
22 de Maio de 2019, 08:45 por mitsumi | Views: 50 | Comments: 0


Interpreting Data with Statistical Models
.MP4, AVC, 1280x720, 30 fps | English, AAC, 2 Ch | 2h 53m | 282 MB
Instructor: Axel Sirota

Data is everywhere, from the newspaper you read on the subway to the report you are using to analyze yesterday's stock market performance. In this course, Interpreting Data with Statistical Models, you will gain the ability to effectively understand how to tackle problems that appear at your work, understand which is the right statistical analysis to use, and how to interpret the results to obtain insights. First, you will learn the very basics of statistics. Next, you will discover hypothesis testing to compare variables. Finally, you will explore how to make multiple comparisons and detect functional relationships with ANOVA and Regression. When you're finished with this course, you will have the skills and knowledge of data analysis and statistical models needed to make your data speak for itself.
                 

               

Download link:
Só visivel para registados e com resposta ao tópico.

Links are Interchangeable - No Password - Single Extraction
22 de Maio de 2019, 07:53 por mitsumi | Views: 57 | Comments: 0


The science of success: How to achieve everything
.MP4 | Video: 1280x720, 30 fps(r) | Audio: AAC, 44100 Hz, 2ch | 3.16 GB
Duration: 2.5 hours | Genre: eLearning Video | Language: English

Take everything from life

What you'll learn

    You will learn to set and achieve harmonious goals that fit your situation, your desires and your values.
    If you do all the practices, you will have a list of goals and a plan for achieving them.
    You will understand that there are more than 24 hours in your day.
    And most importantly - you will have the confidence that EVERYTHING IS POSSIBLE!

Requirements

    Desire to change your life
    20-30 minutes per day
    Readiness to start
    No any additional skills needed. Everything will be given at the course

Description

Imagine for a moment that your life does not change over the next 20 years.

Go forward for 20 years and answer the question to yourself - am I sorry that I did not find the courage and strength to change everything in my life?

If you realize that you have something to strive for, if future you are unhappy with the current state of things - welcome to this course!

In this course, I combined information that I gained over 15 years of work in the oil and gas industry and 10 years of psychology.

There is more practice than theory! Why we should waste time on bla-bla-bla, when you can already make the first step to the fulfillment of the cherished dream?

The best business strategies and psychological practices are combined in one course so that you learn:

- How to believe in yourself

- How to hear your desires

- How to set the right goals

- How to find time, overcome laziness and motivate yourself to act

- How to harmoniously achieve results

Following the simple recommendations given at this course, performing practical tasks - in just 19 days you will have:

LIST of goals that you want to start to achieve right now!

A PLAN to achieve them, harmoniously embedded in your daily life

FAITH that everything (and even more) is possible!

The right goal is 10% of the success.

The right plan for achieving is another 70%.

The belief that everything is possible guarantees you a 100% fulfillment of your cherished dream!

Any goal ...

Change for the better

Lose weight

Build a business

Buy a dream car

Build a house

Meet the love of your life

... will become a reality after you take this course.

And if not, you still have a money back guarantee.

Make up your mind!

Give yourself one more chance!

Who this course is for:

    Who is tired to wait and is ready to act
    Who has undrestood that it's time to change something but does not know what and how
    Who constantly starts something new but never achieve a goal
                                                                                                                                                                                                   Who is afraid to make a first step
             

               

Download link:
Só visivel para registados e com resposta ao tópico.

Links are Interchangeable - No Password - Single Extraction
22 de Maio de 2019, 07:52 por mitsumi | Views: 55 | Comments: 0


The Complete Guide To Small Business Start Up
.MP4 | Video: 1280x720, 30 fps(r) | Audio: AAC, 44100 Hz, 2ch | 624 MB
Duration: 1 hours | Genre: eLearning Video | Language: English

The #1 Step by Step Guide to Starting Your Small Business Successfully this Year!

What you'll learn

    Business Clarity
    Steps Required To start a Business

Requirements

    Creativity
    Willingness to follow through with business idea
    Willingness to be self employed
    Desire to be financially independant

Description

So You're Ready To Take Your Dreams To The Next Level!?

Had Enough Of the 9-5 or Just Want To Turn Your Daily Passion into A Successful Business That You Control.

Gary-Vee Says you're not a pure breed entrepreneur if you've ever worked for someone else, for someone reason this standalone statement has rattled many, but my thought is this; why Is having the title entrepreneur more important than the experience of freedom & control over how you choose to live your life?

It isn't, is it?

If you're looking for a business course that will answer all of your queries in one place, as well as steer you in the best direction, you've found it.

Starting a small business is without a doubt a large undertaking, but it is fortunately something that can be attained by anybody with a good idea, a strong work ethic, and a good set of resources. Starting a business involves thinking of a business concept, writing a business plan, understanding the financial side, and finally marketing and launching.

Use this course in the way it intended; as research and honest guidance towards creating, implementing and maintaining a legally registered, functioning & highly successful community based business.

Who this course is for:

    Pre- Start ups
    Start Ups
           

               
 
Download link:
Só visivel para registados e com resposta ao tópico.

Links are Interchangeable - No Password - Single Extraction
22 de Maio de 2019, 07:50 por mitsumi | Views: 57 | Comments: 0


Mindfulness Level I - The Present
.MP4 | Video: 1280x720, 30 fps(r) | Audio: AAC, 48000 Hz, 2ch | 1.25 GB
Duration: 1 hours | Genre: eLearning Video | Language: English

By International Meditation Teacher Laurentiu Marga

What you'll learn

    Become More Aware
    Clear Your Mind and Live MindFully In This Calm Moment
    Meditate Anytime and Anywhere Easily and Confidently
    Learn Mindful Open Eyes Meditation
    Learn Present Walking Meditation
    Be Deeply Connected to Yourself and Others
    Be Clear and Focused on Any Task
    Overcome Your Mental Fears
    Overcome Physical Pain
    Manage Difficult Emotions
    Take Control of Your Life and Begin Living MindFully
    Live a Life Free of Anxiety and Depression
    Sleep Better and Wake Up Feeling Fresh
    Develop an Enjoyable Daily Present Meditation Practice
    Become More Grounded in This Present Moment
    Develop a Greater Sense of Self Awareness
    Bring Joy, Happiness and Clarity to Your Life

Requirements

    Openness and receptivity for learning powerful mindfulness techniques.

Description

This course will give you essential knowledge and key tools to reach the Mindful state in a simple and straightforward way, as taught by Laurentiu Marga. He is currently holding Mindfulness retreats, teaching people from all over the world. Here are some testimonials:

"Laurentiu is an amazing and unique teacher. His ways remind me of old Zen teachings. He is indeed an enlightened being and you can feel this the moment you meet him, with every word and gesture. All of his techniques are original, extremely logical and very effective. After being to many other retreats and trying almost everything, I can say that Laurentiu offers the only truly effective methods for improving your living experience on every level. He cuts through all the nonsense of the mind and offers a raw, clear, precise, simple and straightforward teaching that leaves you mindless (or mindful)." - Jaroslav Pucek

"The first time when I met Laurentiu Marga was the moment when my mind stopped instantly and only beautiful serenity remained. His Presence revealed a new way of seeing everything, not through thinking, but from direct experience. It was the first glimpse of real bliss. Living in the present moment is the key to leave the burden of human suffering behind and really see what your true nature is. Love"  - Elena Apostol

"I was shocked by how quick and powerful the effects of Laurentiu's techniques are. And unlike other meditations like Vipassana, Kriya or mantras, you can apply them anytime, in your everyday living. You don't need to be an extremist practitioner to feel the pure joy of getting in touch with your True Self, you learn how to do it anytime, at home or at work, when getting up in the morning and going to bed in the evening, when eating and when watching TV, it's amazing, life-changing." - Fabrizio Ciccone

Who this course is for:

    People who want to eliminate stress, anxiety and depression, understand themselves and the mind, learn how to manage their                                                                                                                                                                                                emotions.
    People who want to learn how to enjoy their lives by living Mindfully moment by moment.
           

               
 
Download link:
Só visivel para registados e com resposta ao tópico.

Links are Interchangeable - No Password - Single Extraction
22 de Maio de 2019, 07:49 por mitsumi | Views: 10 | Comments: 0


Microsoft Teams (Office 365)
.MP4 | Video: 1280x720, 30 fps(r) | Audio: AAC, 48000 Hz, 2ch | 1.29 GB
Duration: 2 hours | Genre: eLearning Video | Language: English
Conversations, Channels, and Chatbots: Learn How To Get The Most from Microsoft's Commiunications - Teams.

What you'll learn

    Touring the interface
    Creating teams and adding members
    Sending, receiving, editing, and deleting messages
    Using chats for private messages
    Managing and deleting teams, channels, and conversations
    Scheduling a meeting and inviting attendees
    Sharing files
    Customizing channel tabs
    Using apps, bots, and connectors to add extra functionality
    Adjusting user settings
    Accessing administrator settings
    Using the mobile app for iOS and Android

Requirements

    Internet Connectivity
    General Knowledge with Microsoft Office 365 & Collaboration "Skype for Business"
    General Knowledge with Voice Protocols
    An account for Office 365 is recommended

Description

Get up to speed with Microsoft Teams, the communication and teamwork hub of Office 365. Teams brings together colleagues, conversations, and content, allowing enterprise users to collaborate more seamlessly. In this course, instructor Nick Brazzi walks through everything you need to know about using Teams, starting with how to set up teams and join existing teams. Nick then covers how to organize teams and engage in conversations. He shows how to share files with colleagues and initiate video and audio meetings on Teams-both scheduled and impromptu. Plus, Nick explains how to add extra functionality using apps, bots, and connectors; customize user and administrator settings; and work with the Microsoft Teams mobile app.

Who this course is for:

    Beginner + Intermediate
    Teams users
    Office 365 users
         

               

Download link:
Só visivel para registados e com resposta ao tópico.

Links are Interchangeable - No Password - Single Extraction
22 de Maio de 2019, 07:47 por mitsumi | Views: 9 | Comments: 0


Memory Based Learning Bootcamp: Node.js (Updated)
.MP4 | Video: 1280x720, 30 fps(r) | Audio: AAC, 48000 Hz, 2ch | 4.6 GB
Duration: 8.5 hours | Genre: eLearning Video | Language: English
Prep for Node.js Certified Developer Exam or employment quiz or test. Memory Based Learning is best for memorizing code.

What you'll learn

    You will understand and memorized node build in modules without installing external modules

Requirements

    Intermediate JavaScript (But I do go over everything)
    An IDE and I recommend Visual Studio Code for this course
    Install the latest version of Node

Description

Why Memory Based Learning?

Bootcamp that focus on Node.js and ES6 JavaScript using the same technique as Rosetta Stones, Insanity, and Pimsleur Method .

This week, we will take your coding to a higher level by focusing on node.js. I need you to memorize them. Therefore, I will force them upon you. Respect the process and you will be alright.

Node.js Certified Developer:

Since I cannot add a link on the description, I will copy and paste the certification information from the node.js website.

About the Program

The Node.js Foundation offers a certification program that allows users to demonstrate their competence in a hands-on, command-line environment. The purpose of the Node.js Certified Developer (NCD) program is to provide assurance that NCDs have the skills, knowledge, and competency to perform the responsibilities of an intermediate Node.js developer.

It is an online, proctored, performance-based test that requires solving topic domains from a command line.

Node.js have published the outline around which the NCD exam has been created for the benefit of companies offering training and individuals preparing for examination.

Exam Details

The online exam consists of a set of performance-based items to be solved in a command line and is expected to take 3.5 hours to complete.

The Certification focuses on the skills required to be a successful Node.js developer today. This includes these general domains and their weights on the exam:

    Unit Testing 5%

    Diagnostics (Basics, Debugging, Performance) 5%

    HTTP(S)/TCP 11%

    Events 9%

    Child Processes (Basics, no IPC/fork) 7%

    Buffer and Streams 9%

    Error Handling 7%

    File System 7%

    Control flow (Async tasks, Callbacks) 10%

    CLI (-E, -R, etc) 3%

    Package.json 5%

    JavaScript Prerequisites (Closures, prototypes, var/let/const) 6%

    Security 5%

    Module system (Scope) 6%

    Process/Operating System (no IPC) 5%

The cost is $300 and includes one free retake if unsuccessful.

Memory Based Learning Boot Camp Method Statement:

Our method is to focus on what you may consider as difficult first. That is why we start by teaching the back end side of programming. Then we slowly progress into teaching you the front ends. It is important that you follow our learning process. Because, many students are used to first learning html, css, etc. You become a master at those basic part of programming and you start to fear the rest. Our method asks you to face your fears. We will be with you as you do.

Our Curriculum is as follow:

Memory Based Learning: JavaScript References

Memory Based Learning: Node.js

Memory Based Learning: Express.js

Memory Based Learning: MongoDB and Mongoose

Memory Based Learning: Git and Github

Memory Based Learning: React and Redux

Memory Based Learning: NPM Open Source Projects

Memory Based Learning: Python

Memory Based Learning: Blockchain and Bitcoin

Here are a few problems with learning with online tutorials:

    Course, Sections, and Lectures are too long, therefore students loose interest quickly..

    Few hands on challenges.

    unfamiliar territories.

    too much explaining

    not enough repetitions

here's how I tackle these challenges.

    Sense of Completions: My videos are as short and precise as possible. I try to break each section per day and each day is about 1 to two  hours long. I keep my "everything" short because I need you to have a sense of completion. That way, you know you have finish and you can start on something new. This also makes it easier for you to take the course over and over again.

    Challenge after each video: that's right, I challenge you to apply what you have learned after each lesson. I used the same technique as Pimsleure Method and Rosetta Stones... which is called the space repetition technique. This technique allow you to learn new things in portions, then I consistently ask you to recall what you learn while the time lapse between each lesson grew longer.

    Place you in familiar territories: you learn new things surrounded by other things you already learned. This is very important because you can now relate new topics with topics that you already understood. This makes it easier to relate the material. For example, I teach you plenty of function statements, which make it easier to understand function expression, which makes it easier to under arrow functions, etc.

    Teaching programming shouldn't be persuasive: If I start by trying to explain the "why"  in programming, you will be lost. Some people may not agree but it is true. Imagine explaining why to a child... they will not stop asking why.                                                                                                                                                                                                And after they exhaust all their why's, they will ask why am I not asking why? Therefore, I make sure you see it in perspective. I make sure you use it and you know when to use it. Then, later, you can learn "Why", and when that time come... it will be easier for you to say... I understand.

    Recall, Recall, Recall: that's right. In this course, you will be writing more codes then you would from any other series. Because, this entire bootcamp is all about recalling what you learn previously. Just like a baby, you must see your mother, your toy, your dog, your bed, your bottle constantly. then you will start understanding how to climb the stairs, how to open the doors, etc.

As you can see, this course is a challenge. I will challenge you to set aside the norms. And focus on my strategy. Respect the process and  you will be alright.

Who this course is for:

    Students who have taken Memory Based Learning JavaScript or any other JavaScript course and who are interested in exploring the power of node
               

               

Download link:
Só visivel para registados e com resposta ao tópico.

Links are Interchangeable - No Password - Single Extraction
22 de Maio de 2019, 07:46 por mitsumi | Views: 51 | Comments: 0


Memory Based Learning Bootcamp: Javascript
.MP4 | Video: 1280x720, 30 fps(r) | Audio: AAC, 48000 Hz, 2ch | 3.35 GB
Duration: 8 hours | Genre: eLearning Video | Language: English
Similar to Rosetta Stones and The Pimsleure Methods, I help you memorize coding using the space repetition technique.

What you'll learn

    This course will set you ready to take project based courses because you will remember how to write JavaScript.

Requirements

    Make a commitment and stick to it!

Description

Why Memory Based Learning?

Bootcamp that focus on ES6 JavaScript using the same technique as Rosetta Stones, Insanity, and Pimsleur Method.

This week, we will take your coding to a higher level by focusing on node.js. I need you to memorize them. Therefore, I will force them upon you. Respect the process and you will be alright.

Memory Based Learning Boot Camp Method Statement:

Our method is to focus on what you may consider as difficult first. That is why we start by teaching the back end side of programming. Then we slowly progress into teaching you the front ends. It is important that you follow our learning process. Because, many students are used to first learning html, css, etc. You become a master at those basic part of programming and you start to fear the rest. Our method asks you to face your fears. We will be with you as you do.

Our Curriculum is as follow:

Memory Based Learning: JavaScript References

Memory Based Learning: Node.js

Memory Based Learning: Express.js

Memory Based Learning: MongoDB and Mongoose

Memory Based Learning: Git and Github

Memory Based Learning: React and Redux

Memory Based Learning: NPM Open Source Projects

Memory Based Learning: Python

Memory Based Learning: Blockchain and Bitcoin

Here are a few problems with learning with online tutorials:

    Course, Sections, and Lectures are too long, therefore students loose interest quickly..

    Few hands on challenges.

    unfamiliar territories.

    too much explaining

    not enough repetitions

here's how I tackle these challenges.

    Sense of Completions: My videos are as short and precise as possible. I try to break each section per day and each day is about 1 to two  hours long. I keep my "everything" short because I need you to have a sense of completion. That way, you know you have finish and you can start on something new. This also makes it easier for you to take the course over and over again.

    Challenge after each video: that's right, I challenge you to apply what you have learned after each lesson. I used the same technique as Pimsleure Method and Rosetta Stones... which is called the space repetition technique. This technique allow you to learn new things in portions, then I consistently ask you to recall what you learn while the time lapse between each lesson grew longer.

    Place you in familiar territories: you learn new things surrounded by other things you already learned. This is very important because you can now relate new topics with topics that you already understood. This makes it easier to relate the material. For example, I teach you plenty of function statements, which make it easier to understand function expression, which makes it easier to under arrow functions, etc.

    Teaching programming shouldn't be persuasive: If I start by trying to explain the "why"  in programming, you will be lost. Some people may not agree but it is true. Imagine explaining why to a child... they will not stop asking why. And after they exhaust all their why's, they will ask why am I not asking why? Therefore, I make sure you see it in perspective. I make sure you use it and you know when to use it. Then, later, you can learn "Why", and when that time come... it will be easier for you to say... I understand.

    Recall, Recall, Recall: that's right. In this course, you will be writing more codes then you would from any other series. Because, this entire bootcamp is all about recalling what you learn previously. Just like a baby,                                                                                                                                                                                                you must see your mother, your toy, your dog, your bed, your bottle constantly. then you will start understanding how to climb the stairs, how to open the doors, etc.

As you can see, this course is a challenge. I will challenge you to set aside the norms. And focus on my strategy. Respect the process and  you will be alright.

Who this course is for:

    Do you want to memorize JavaScript using the same method as Rosetta Stones and Pimsleur Methods? Then this course is for you!
             

               

Download link:
Só visivel para registados e com resposta ao tópico.

Links are Interchangeable - No Password - Single Extraction
22 de Maio de 2019, 07:44 por mitsumi | Views: 46 | Comments: 0


MasterClass - Aaron Franklin Teaches Texas-Style BBQ
.MP4, AVC, 4100 kbps, 1920x1080 | English, AAC, 192 kbps, 2 Ch | 4.5 hours | + PDF Workbook | 6.62 GB

Praised as one of the most influential pitmasters in the U.S., self-taught barbecue legend Aaron Franklin has come a long way from the backyard cookouts where he started. Now he has fans across the country, including Jimmy Kimmel and President Barack Obama.

In 2015, he won the James Beard Foundation Award for Best Chef: Southwest. His Austin, Texas, restaurant Franklin Barbecue was named Bon Appétit Magazine's Best Barbecue Joint in America, and people stand in line for hours each day to enjoy his mouth-watering smoked brisket.

He also hosts a popular PBS show, BBQ with Franklin, helped launch an annual food and music festival, Hot Luck Fest, and opened Loro, an Asian smokehouse and bar with fellow James Beard Award-winner Tyson Cole.

In his new MasterClass, Aaron teaches you the brisket recipe from Franklin Barbecue and walks you through the meticulous Aaron Franklin brisket process, hour by hour. Learn the low and slow pitmaster techniques that make Central Texas barbecue so deliciously tender, Aaron's process for selecting the right wood and managing an offset smoker, and his steps for making succulent BBQ ribs and pork butt. Gain a better understanding of the science of barbecue, elevate your smoking techniques, and take your pitmaster skills to the next level.

In this Texas-style BBQ class, you'll learn about:

* Selecting and sorting wood
* Managing a fire to hit optimal temperatures
* Handling an offset smoker
* Aaron's exact process for his famous brisket
* Sourcing and smoking pork
* Selecting, trimming, and seasoning cuts
* Beef quality
* Grilling steak
* Preparing sauces
* The history of Central Texas barbecue

        01. Introduction
02. Fire & Smoke
03. Smoke - Pork Butt
04. Smoke - Pork Ribs
05. Wood
06. Steak & Broccolini
07. Beef Quality & Selection
08. Prep - Brisket Trim
09. Smoke - Brisket Part I
10. Smoke - Brisket Part II
11. Smoke - Brisket Part III
12. Finish - Brisket Slice
13. Prepare - Sauce
14. Offset Smokers
15. Aaron's Journey To Pitmaster
16. Bonus - How Briskey Became King   

More Info
Só visivel para registados e com resposta ao tópico.
             

                           

               

Download link:
Só visivel para registados e com resposta ao tópico.

Links are Interchangeable - No Password - Single Extraction
22 de Maio de 2019, 07:42 por mitsumi | Views: 46 | Comments: 0


Learn to change Background in Photoshop CC
.MP4 | Video: 1280x720, 30 fps(r) | Audio: AAC, 48000 Hz, 2ch | 619 MB
Duration: 2.5 hours | Genre: eLearning Video | Language: English
Learn to manipulate budget indoor studio shots to high quality outdoor images of models & products using Photoshop.

What you'll learn

    You will be able to change the background of images realistically, and even output it for giant size billboards.
    Photographers can shoot products and people in home studio and add the backdrop realistically to make it outdoor shoot like a big advertising photographer.
    You will be able to offer high quality photography for advertising with tight budget.
    Indoor photos with white background do not cost much, but changing the background can earn you good money
    Great for webpromos, ecommerce website sliders or online banner advertisements.
    You will be learning absolutely pro selection techniques, you will be able to extract very basic subjects to fine flying hair

Requirements

    Beginners Adobe Photoshop knowledge is expected.
    Adobe Photoshop CS5 or later, CC 2018 recommended
    You should be able to use PC or Mac in general
    You should understand the basics of Photoshop Layers

Description

This is a practical, commercial course - If you are a photographer this course will add a great value to your business. If you are a photoshop artist you can offer this new service to all the budget photographers around the world.

For many beginners shooting in exotic/foreign locations is just a dream, expensive air tickets, crew, hotels is all a fantasy for many many Photographers. This course is for those who shoot good indoor images but have very little to spend on outdoor.

A simple shoot for a fashion/apparel ad poster can cost 1000s even if you travel domestic with your crew, but with this course you can shoot it indoor with absolutely tight budget and place the image on background shot of Paris or London or Bali or NY, and people will not see the difference.

    With this course you will learn how to make a cutout of your indoor shot, even if the models long hair is flying in the air.
    You will learn to prepare the natural looking background by using several free images or paid stock images.
    You will learn how to adjust the tonal quality of several images and make all of them look like single shot.
    You will learn some secretes of changing the indoor images into outdoor shots that look genuine.
    You can add life to your indoor product shots by adding dreamy but realistic backgrounds.

Who this course is for:

    Photographers who want to shoot indoor with tight budget and manipulate images to get grand results of outdoor shoots.
    Image editors who want to learn the art of changing realistic backdrops in Photoshop.
    Enthusiast or aspiring digital artists who want to                                                                                                                                                                                                shoot indoor and change the images to outdoor realistically.
           

               
 
Download link:
Só visivel para registados e com resposta ao tópico.

Links are Interchangeable - No Password - Single Extraction
22 de Maio de 2019, 07:41 por mitsumi | Views: 4 | Comments: 0


How to Film Epic Travel Videos with Gopro & the 360 Fusion
.MP4 | Video: 1280x720, 30 fps(r) | Audio: AAC, 48000 Hz, 2ch | 4.81 GB
Duration: 2 hours | Genre: eLearning Video | Language: English

Learn to make Epic Travel Videos with Gopros products Filmed in the Maldive Islands

What you'll learn

    Understand how to take great footage with Gopro 6 Underwater
    An in depth understanding of the Gopro Fusion 360 camera
    Take time lapses
    An Entire workflow for creating an awesome video from pre-sales, editing, and publishing

Requirements

    Gopro 5 and higher
    Gopro fusion

Description

In this course you're going to learn how to make the most of the latest Gopro products to film amazing Videos with veteran Travel Videographer Greg Hung and 360 VR Expert Al Caudullo. As Travel Videographers you're going to learn how to use your Gopro products in exotic destinations like the Maldives and also practical applications of the technology. Some of features of the course include learning time-lapses in the Maldives, Filming sea-life in the ocean, learning a full editing workflow, and getting a chance to edit your own video project using our supplied project footage. You will get a chance to work with 4K drone footage, and footage shot with a gopro using a variety of different resolutions in the exotic location of the Maldive Islands. A unique feature of this course is that we actually take your through the entire video edit of a client Gopro vacation video. You're also going to have a chance to learn 360 video with Gopro's Fusion camera with multiple 3D award Al Caudullo. He is going to share some of the fundamentals using Gopros first 360 camera.

Who this course is for:

    People interested in learning Video with Gopro's latest products (5,6,7)
    Students interested in an introduction to 360 video
    Travelers that want to learn how to make great travel videos
     

               
 
Download link:
Só visivel para registados e com resposta ao tópico.

Links are Interchangeable - No Password - Single Extraction
22 de Maio de 2019, 07:39 por mitsumi | Views: 39 | Comments: 0


Guitar World - In Deep with the Major-Minor Modes
WEBRip | English | MP4 + PDF Guides | 720 x 406 | AVC ~738 kbps | 23.976 fps
AAC 138 Kbps 48.0 KHz | 2 channels | ~100 min | 3.96 GB
Genre: eLearning Video / Guitar lesson

In Deep With the Minor/Major Modes - DVD

In Deep with the Minor Modes, the latest in Andy Aledort's In Deep instructional DVD series, and the follow up to In Deep with the Major Modes, includes over 60 minutes of instruction!

In this DVD you'll learn:

The seven fundamental modes
How to harmonize scales and modes with chords
How to apply modes to chord progressions
Soloing with the Dorian, Aeolian, Phrygian and Locrian modes
How to transpose modes to different keys
Pentatonic superimpositions
And much more!

In Deep With the Major Modes - DVD

The latest in Andy Aledort's In Deep instructional DVD series, In Deep with the Major Modes includes over 100 minutes of instruction!

In this DVD you'll learn:

Ionian, Lydian and Mixolydian modes.
Essential fingering patterns and keys.
How to create licks from scale patterns.
Major pentatonic and hexatonic scales.
Blues soloing using thirds and sixths
Hybrid-dominant scales
And much more!

        General
Complete name                            : Chapter 3 The A Major and E Major Hexatonic Scales.mp4
Format                                   : MPEG-4
Format profile                           : Base Media / Version 2
Codec ID                                 : mp42 (isom/iso2/avc1/mp41)
File size                                : 114 MiB
Duration                                 : 18 min 0 s
Overall bit rate mode                    : Variable
Overall bit rate                         : 882 kb/s
Writing application                      : HandBrake 0.10.0 2014112200

Video
ID                                       : 1
Format                                   : AVC
Format/Info                              : Advanced Video Codec
Format profile                           : Main@L4
Format settings                          : CABAC / 4 Ref Frames
Format settings, CABAC                   : Yes
Format settings, RefFrames               : 4 frames
Codec ID                                 : avc1
Codec ID/Info                            : Advanced Video Coding
Duration                                 : 18 min 0 s
Bit rate                                 : 738 kb/s
Width                                    : 720 pixels
Height                                   : 406 pixels
Display aspect ratio                     : 16:9
Frame rate mode                          : Variable
Frame rate                               : 23.976 (24000/1001) FPS
Minimum frame rate                       : 23.974 FPS
Maximum frame rate                       : 23.981 FPS
Color space                              : YUV
Chroma subsampling                       : 4:2:0
Bit depth                                : 8 bits
Scan type                                : Progressive
Bits/(Pixel*Frame)                       : 0.105
Stream size                              : 95.0 MiB (84%)
Writing library                          : x264 core 142 r2479 dd79a61
Encoding settings                        : cabac=1 / ref=1 / deblock=1:0:0 / analyse=0x1:0x111 / me=hex / subme=2 / psy=1 / psy_rd=1.00:0.00 / mixed_ref=0 / me_range=16 / chroma_me=1 / trellis=0 / 8x8dct=0 / cqm=0 / deadzone=21,11 / fast_pskip=1 / chroma_qp_offset=0 / threads=12 / lookahead_threads=3 / sliced_threads=0 / nr=0 / decimate=1 / interlaced=0 / bluray_compat=0 / constrained_intra=0 / bframes=3 / b_pyramid=2 / b_adapt=1 / b_bias=0 / direct=1 / weightb=1 / open_gop=0 / weightp=1 / keyint=240 / keyint_min=24 / scenecut=40 / intra_refresh=0 / rc_lookahead=10 / rc=crf / mbtree=1 / crf=20.0 / qcomp=0.60 / qpmin=0 / qpmax=69 / qpstep=4 / vbv_maxrate=20000 / vbv_bufsize=25000 / crf_max=0.0 / nal_hrd=none / filler=0 / ip_ratio=1.40 / aq=1:1.00
Color range                              : Limited
Color primaries                          : BT.601 NTSC
Transfer characteristics                 : BT.709
Matrix coefficients                      : BT.601

Audio
ID                                       : 2
Format                                   : AAC
Format/Info                              : Advanced Audio Codec
Format profile                           : LC
Codec ID                                 : mp4a-40-2
Duration                                 : 18 min 0 s
Bit rate mode                            : Variable
Bit rate                                 : 138 kb/s
Channel(s)                               : 2 channels
Channel positions                        : Front: L R
Sampling rate                            : 48.0 kHz
Frame rate                               : 46.875 FPS (1024 SPF)
Compression mode                         : Lossy
Stream size                              : 17.7 MiB (16%)
Title                                    : Stereo / Stereo
Language                                 : English
Default                                  : Yes
Alternate group                          : 1   

Screenshots
   




Download link:
Só visivel para registados e com resposta ao tópico.

Links are Interchangeable - No Password - Single Extraction
22 de Maio de 2019, 07:37 por mitsumi | Views: 4 | Comments: 0


Create A Responsive Website+Hosting For Free Without Coding
.MP4 | Video: 1280x720, 30 fps(r) | Audio: AAC, 44100 Hz, 2ch | 860 MB
Duration: 1 hours | Genre: eLearning Video | Language: English
Create Your First Website Without Web Designers For Free! Including Free Hosting, Free SSL Certificates and Free Images.

What you'll learn

    Learn How To Create A Beautiful Website Without Coding
    How To Create A Mobile Ready Website Without Hiring A Developer
    How To Connect Your Domain To GitHub Pages
    How To Host Your Website For Free
    How To Add SSL For Free
    How To Add A Chat To Your Website For Free
    How To Receive Emails For Free
    Setup Your GitHub Page With SSL

Requirements

    You need a Windows-PC or a Mac
    If you want to connect your Domain then you need a Domainname

Description

Are you wondering how to create a Website for free? Including beautiful Design and free Hosting? I did. And now I will show you how!

Before I discovered THIS method I tried all the services out there and paid hundreds of Dollars for Hosting and thousands of Dollars for Web-designers.

I tried Wordpress. I tried Webflow. I tried Mailchimp Landingpages, Wix, Unbounce, Leadpages and Instapage. I used an absurdly configured Shopify-Store as Landingpage. I have even implemented my own Landingpage Generator based on Pimcore.

Don't get me wrong, they're all great, but if you're just starting out or need a beautifully designed page really really quickly then it's mostly a waste of money. Because they all need special hosting and a web-designer or expensive Themes on top.

And I spent a lot of money. Until I had enough!

I changed my workflow.

If I just start out now then I'm using THIS method now to get a new business page out in HALF a day. A full page, beautifully designed, mobile ready, blazing fast. And the best is: It's totally FREE!

All you need to do is plugin your own Text and add your own pictures and hit publish.

Three simple steps: Create. Publish. Done.

In this course I'll even show you how to get the BEST Free Pictures for your Websites!

And on top of it, I'll show you my favorite Chat App, which is TOTALLY Free as well! I will show you how you can integrate it into your existing website quickly and the right way!

If you ever wondered how to create websites for free, mobile ready including free Hosting, then THIS course is for you!

I'll show you my FULL Workflow from A-Z!

Don't look any further and enroll here right now!

Who this course is for:

    This Course is Suitable for Absolute Beginners
    This Course Is For Everyone Who Wants To Build Websites Fast
    This Course Is For Everyone Who Wants To Build Websites For Free
    This Course Is For Everyone Who Wants                                                                                                                                                                                                To Build Responsive Websites For Free
       

               

Download link:
Só visivel para registados e com resposta ao tópico.

Links are Interchangeable - No Password - Single Extraction
22 de Maio de 2019, 07:35 por mitsumi | Views: 5 | Comments: 0


Coursera - Natural Language Processing (Columbia University)
WEBRip | English | MP4 + PDF slides | 960 x 540 | AVC ~42.6 kbps | 29.970 fps
AAC | 128 Kbps | 44.1 KHz | 2 channels | Subs: English (.srt) | ~17 hours | 1.13 GB
Genre: eLearning Video / Engineering, Linguistics, NLP
Natural language processing (NLP) deals with the application of computational models to text or speech data. Application areas within NLP include automatic (machine) translation between languages; dialogue systems, which allow a human to interact with a machine using natural language; and information extraction, where the goal is to transform unstructured text into structured (database) representations that can be searched and browsed in flexible ways.

NLP technologies are having a dramatic impact on the way people interact with computers, on the way people interact with each other through the use of language, and on the way people access the vast amount of linguistic data now in electronic form. From a scientific viewpoint, NLP involves fundamental questions of how to structure formal models (for example statistical models) of natural language phenomena, and of how to design algorithms that implement these models.

In this course you will study mathematical and computational models of language, and the application of these models to key problems in natural language processing. The course has a focus on machine learning methods, which are widely used in modern NLP systems: we will cover formalisms such as hidden Markov models, probabilistic context-free grammars, log-linear models, and statistical models for machine translation. The curriculum closely follows a course currently taught by Professor Collins at Columbia University, and previously taught at MIT.

Syllabus
Topics covered include:

1. Language modeling.
2. Hidden Markov models, and tagging problems.
3. Probabilistic context-free grammars, and the parsing problem.
4. Statistical approaches to machine translation.
5. Log-linear models, and their application to NLP problems.
6. Unsupervised and semi-supervised learning in NLP.

Taught by Michael Collins

        General
Complete name                            : 03_Basics_of_PCFGs_Part_2_8-26.mp4
Format                                   : MPEG-4
Format profile                           : Base Media
Codec ID                                 : isom (isom/iso2/avc1/mp41)
File size                                : 10.8 MiB
Duration                                 : 8 min 26 s
Overall bit rate                         : 179 kb/s
Encoded date                             : UTC 1970-01-01 00:00:00
Tagged date                              : UTC 1970-01-01 00:00:00
Writing application                      : Lavf53.29.100

Video
ID                                       : 1
Format                                   : AVC
Format/Info                              : Advanced Video Codec
Format profile                           : High@L3.1
Format settings                          : CABAC / 4 Ref Frames
Format settings, CABAC                   : Yes
Format settings, RefFrames               : 4 frames
Codec ID                                 : avc1
Codec ID/Info                            : Advanced Video Coding
Duration                                 : 8 min 26 s
Bit rate                                 : 42.6 kb/s
Width                                    : 960 pixels
Height                                   : 540 pixels
Display aspect ratio                     : 16:9
Frame rate mode                          : Constant
Frame rate                               : 29.970 (30000/1001) FPS
Color space                              : YUV
Chroma subsampling                       : 4:2:0
Bit depth                                : 8 bits
Scan type                                : Progressive
Bits/(Pixel*Frame)                       : 0.003
Stream size                              : 2.57 MiB (24%)
Writing library                          : x264 core 120 r2120 0c7dab9
Encoding settings                        : cabac=1 / ref=3 / deblock=1:0:0 / analyse=0x3:0x113 / me=hex / subme=7 / psy=1 / psy_rd=1.00:0.00 / mixed_ref=1 / me_range=16 / chroma_me=1 / trellis=1 / 8x8dct=1 / cqm=0 / deadzone=21,11 / fast_pskip=1 / chroma_qp_offset=-2 / threads=12 / sliced_threads=0 / nr=0 / decimate=1 / interlaced=0 / bluray_compat=0 / constrained_intra=0 / bframes=3 / b_pyramid=2 / b_adapt=1 / b_bias=0 / direct=1 / weightb=1 / open_gop=0 / weightp=2 / keyint=250 / keyint_min=25 / scenecut=40 / intra_refresh=0 / rc_lookahead=40 / rc=crf / mbtree=1 / crf=28.0 / qcomp=0.60 / qpmin=0 / qpmax=69 / qpstep=4 / ip_ratio=1.40 / aq=1:1.00
Encoded date                             : UTC 1970-01-01 00:00:00
Tagged date                              : UTC 1970-01-01 00:00:00

Audio
ID                                       : 2
Format                                   : AAC
Format/Info                              : Advanced Audio Codec
Format profile                           : LC
Codec ID                                 : mp4a-40-2
Duration                                 : 8 min 26 s
Bit rate mode                            : Constant
Bit rate                                 : 128 kb/s
Channel(s)                               : 2 channels
Channel positions                        : Front: L R
Sampling rate                            : 44.1 kHz
Frame rate                               : 43.066 FPS (1024 SPF)
Compression mode                         : Lossy
Stream size                              : 7.73 MiB (71%)
Default                                  : Yes
Alternate group                          : 1
Encoded date                             : UTC 1970-01-01 00:00:00
Tagged date                              : UTC 1970-01-01 00:00:00   

Screenshots
   




Download link:
Só visivel para registados e com resposta ao tópico.

Links are Interchangeable - No Password - Single Extraction
22 de Maio de 2019, 07:34 por mitsumi | Views: 34 | Comments: 0


Clickbank: How to recruit affiliates as a product vendor
.MP4 | Video: 1280x720, 30 fps(r) | Audio: AAC, 44100 Hz, 2ch | 1.07 GB
Duration: 2 hours | Genre: eLearning Video | Language: English

Find affiliate resellers by recruiting influencers

What you'll learn

    Step-by-step walkthrough to post your first product as a vendor on ClickBanks
    Find affiliates to promote your product
    Have new affiliates automatically find you on a regular basis without recruitment
    Boost sales by having an army of affiliates promote your products
    Grow your brand
    Get a new passive sales channel

Requirements

    $50 fee to add your product to ClickBank as a vendor

Description

Learn how to find many influencers and bloggers to resell your products for a commission by using ClickBank to:

1) Automatically recruit new affiliates.

2) Provide the technical infrastructure to help you create an affiliate program for your business.

3) Find affiliates outside of ClickBank.

Who this course is for:

    Entrepreneurs who want to recruit affiliates to sell their product
       

               

Download link:
Só visivel para registados e com resposta ao tópico.

Links are Interchangeable - No Password - Single Extraction
22 de Maio de 2019, 07:32 por mitsumi | Views: 4 | Comments: 0


B&Qtiles - Lessons on Tiling
DVDRip | English | AVI | 640 x 360 | XviD ~1273 Kbps | 25 fps
MP3 | 128 Kbps | 48.0 KHz | 2 channels | 01:56:38 | 1.08 GB
Genre: eLearning Video / Construction, Homebuilding, Repair
In this tape, designed for professionals and homeowners alike, Savage guides you step-by-step as he trims out parts of a house and shares his job-site savvy and secrets. You'll learn to match pieces of trim precisely, negotiate unsquare openings, and seat moldings solidly against bumpy walls and ceilings.

        General
Complete name                            : Wall tiles.avi
Format                                   : AVI
Format/Info                              : Audio Video Interleave
File size                                : 742 MiB
Duration                                 : 1h 13mn
Overall bit rate                         : 1 411 Kbps
Writing application                      : VirtualDubMod 1.5.10.2 (build 2540/release)
Writing library                          : VirtualDubMod build 2540/release

Video
ID                                       : 0
Format                                   : MPEG-4 Visual
Format profile                           : Advanced Simple@L5
Format settings, BVOP                    : 1
Format settings, QPel                    : No
Format settings, GMC                     : No warppoints
Format settings, Matrix                  : Default (MPEG)
Codec ID                                 : XVID
Codec ID/Hint                            : XviD
Duration                                 : 1h 13mn
Bit rate                                 : 1 273 Kbps
Width                                    : 640 pixels
Height                                   : 360 pixels
Display aspect ratio                     : 16:9
Frame rate                               : 25.000 fps
Color space                              : YUV
Chroma subsampling                       : 4:2:0
Bit depth                                : 8 bits
Scan type                                : Progressive
Compression mode                         : Lossy
Bits/(Pixel*Frame)                       : 0.221
Stream size                              : 669 MiB (90%)
Writing library                          : XviD 1.2.1 (UTC 2008-12-04)

Audio
ID                                       : 1
Format                                   : MPEG Audio
Format version                           : Version 1
Format profile                           : Layer 3
Codec ID                                 : 55
Codec ID/Hint                            : MP3
Duration                                 : 1h 13mn
Bit rate mode                            : Constant
Bit rate                                 : 128 Kbps
Channel(s)                               : 2 channels
Sampling rate                            : 48.0 KHz
Compression mode                         : Lossy
Stream size                              : 67.3 MiB (9%)
Alignment                                : Aligned on interleaves
Interleave, duration                     : 40 ms (1.00 video frame)
Interleave, preload duration             : 504 ms
Writing library                          : LAME3.98r
Encoding settings                        : -m s -V 4 -q 2 -lowpass 17 -b 128   

Screenshots
   




Download link:
Só visivel para registados e com resposta ao tópico.

Links are Interchangeable - No Password - Single Extraction
22 de Maio de 2019, 07:30 por mitsumi | Views: 32 | Comments: 0


Are you ready to find out what the market is hiding from you
.MP4 | Video: 1280x720, 30 fps(r) | Audio: AAC, 48000 Hz, 2ch | 1.85 GB
Duration: 2.5 hours | Genre: eLearning Video | Language: English

Analyzing the market by Volume Profile to know where the big players bought and we buy with them

What you'll learn

    Analyzing the market by Volume Profile to know where the big players bought and we buy with them because they will Defense of position .
    A strategy that if you follow you will make your 1000$ to 1,350,000$ in one year by making 2% every day.
    Orderflow that will make you see the market in 3D mode so you can understand the market more.

Requirements

    NO

Description

My name is Bashir Sanuga and I am a professional Trader .

I have been trading more then 6 years and I studied trading with top traders in the world and I got a lot to share with you i will have only one course in udemy that has all you need from A to Z after taking this course you will master all the knowledge that you need to be professional trader and get out from 90% zone, I am going to teach you one by one , my only question is are you ready to take action today?

I hope you take action and join my student to change your life.

Who this course is for:

    Who want to get to the next level of trading not using old school shits in the market how you are going to competitive wit funds and big traders has hundreds of millions on the table .
           

               
 
Download link:
Só visivel para registados e com resposta ao tópico.

Links are Interchangeable - No Password - Single Extraction
Nelito
22 de Maio de 2019, 07:02 por Nelito
Views: 37 | Comments: 0


O centro dos EUA foi atravessado na terça-feira por mais de 30 tornados, que estragaram habitações no Estado do Oklahoma, demoliram a tribuna de uma pista de corridas no Missouri e agravaram as inundações em vários Estados.

O mau tempo começou nas planícies do sul na noite de segunda-feira e moveu-se no sentido de nordeste. O Missouri e partes dos Estados do Ilinóis e Arcansas estiveram hoje sob a sua influência. Hoje, a tempestade vai mover-se em direção à região dos Grandes Lagos, onde irá enfraquecer.

Mas já se está à espera de outra tempestade, que pode cobrir a área do Texas a Chicago, segundo o serviço meteorológico norte-americano.

Patrick Marsh, do centro de previsão de tempestades da agência norte-americana para a Atmosfera e os Oceanos (NOAA, na sigla em inglês), disse que testemunhas relataram 26 tornados na segunda-feira e mais seis na terça.

Um destes, próximo de Tulsa, tinha uma largura de 1,6 quilómetros e ventos entre 179 quilómetros e 217 quilómetros por hora. "Não é nada com que se queira interferir", comentou.

Além de danos, estes tornados provocaram o fecho do aeroporto de Tulsa, destruíram um parque de campismo, afetaram um parque com vida selvagem e inundaram a estrada interestadual 40, em El Reno, a 40 quilómetros da Cidade de Oklahoma.

No Missouri, o governador Mike Parson declarou o estado de emergência.

Com uma potencialmente perigosa tempestade a caminho de St. Louis, a equipa de basebol Cardinals anulou o jogo previsto com os rivais da Kansas City Royals. As previsões apontam para tempestades muito fortes a chegarem a St. Louis pouco depois de o jogo estar previsto para começar.

Grandes fusões de gelo no norte e significativas chuvadas de primavera provocaram uma série de inundações no Missouri e, na segunda-feira, o Presidente dos EUA, Donald Trump, fez uma declaração de desastre relativa a 13 condados afetados pelas inundações de março.

O rio Missouri deve atingir o principal ponto de inundação no final da semana em Jefferson City, Hermann, St. Charles e zona envolvente.
Pages: 1 2 3 4 5 6 7 8 [9] 10 11 12 13 14 15

TOP SITES

Topsiteseforuns

* Recent Posts

Re: Bombocas - Eles sao todos iguais (2010) por HCH
[Hoje às 01:43]


Re: Cândido Ribeiro - Amor De Mão por m1957
[Hoje às 00:52]


Vero Edgecam 2019 R1 SU5 por rollroy
[Hoje às 00:48]


Vero Surfcam 2019 R1 SU5 por rollroy
[Hoje às 00:46]


AbyssMedia WaveCut Audio Editor 5.4.0.0 por rollroy
[Hoje às 00:44]


Apowersoft ApowerPDF 4.1.1.315 (Build 03/16/2019) Multilingual por rollroy
[Hoje às 00:42]


Re: Jorge Loureiro - No kubota devagarinho (2013) por vilatorrentino
[Hoje às 00:40]


Automate Enterprise 11.1.20.19 (x86/x64) por rollroy
[Hoje às 00:40]


AV Audio Converter 7.2.6 por rollroy
[Hoje às 00:38]


AV Audio Editor 7.5.6 por rollroy
[Hoje às 00:35]


AV Audio Merger 6.5.6 por rollroy
[Hoje às 00:33]


Re: Maria Celeste, Jorge Loureiro - Senhora do Rosário (2018) RM. por vilatorrentino
[Hoje às 00:33]


Cinesamples - Voices of War - Men of the North KONTAKT por rollroy
[Hoje às 00:31]


Corel VideoStudio Ultimate 2019 v22.2.0.392 (x64) Multilingual por rollroy
[Hoje às 00:29]


Goversoft Privazer 3.0.66 Donors version Multilingual + Portable por rollroy
[Hoje às 00:27]


Rogue Amoeba Airfoil 5.6.4 por rollroy
[Hoje às 00:25]


SQLite Expert Professional 5.3.4.418 por rollroy
[Hoje às 00:23]


Re: Elena Correia - Vamos gozar a vida (Novo Single 2019) por djmuletas
[Hoje às 00:18]


Re: Jorge Loureiro – Sempre a dar a martelada por vilatorrentino
[Hoje às 00:15]


Re: Maria Celeste & Jorge Loureiro - Ó Senhora da Esperança por vilatorrentino
[Hoje às 00:05]


Re: Jorge Loureiro - Aos teus pés vou rezar por vilatorrentino
[24 de Maio de 2019, 23:58]


Re: Mão Morta - Müller no Hotel Hessischer Hof (2019) por kikas66jg
[24 de Maio de 2019, 23:52]


V. A. - The Best Love Songs ...Ever! (1999) por bloco2135
[24 de Maio de 2019, 23:52]


Re: VA - Um Disco para José Mário Branco (2019) por kikas66jg
[24 de Maio de 2019, 23:50]


Re: Jorge Loureiro — Sou Calceteiro por vilatorrentino
[24 de Maio de 2019, 23:50]


Hot R. S. - Forbidden Fruit (1978) por bloco2135
[24 de Maio de 2019, 23:48]


Re: Isabel Mesquita - Ilhéu (2019) por kikas66jg
[24 de Maio de 2019, 23:47]


Re: Disco do Ano Vol. 19 (2019) V.A por jfmvsc
[24 de Maio de 2019, 23:47]


Re: AUGUSTO CANÁRIO & AMIGOS - AUGUSTO CANÁRIO À DESGARRADA COM...ELAS! (2019) por kikas66jg
[24 de Maio de 2019, 23:45]


The Manhattans - Greatest Hits (1980) por bloco2135
[24 de Maio de 2019, 23:45]


Re: ÁTOA! - Sem Medos (2019) por kikas66jg
[24 de Maio de 2019, 23:40]


Re: Xana Toc Toc - Rádio Toc Toc (2019) por kikas66jg
[24 de Maio de 2019, 23:38]


Re: AUGUSTO CANÁRIO & AMIGOS - AUGUSTO CANÁRIO À DESGARRADA COM...ELAS! (2019) por jfmvsc
[24 de Maio de 2019, 23:37]


Re: Gente de Zona - Otra Cosa (2019) por kikas66jg
[24 de Maio de 2019, 23:37]


Re: Jorge Loureiro Barcelos, Mickael Ponde de Lima - O Galo de Barcelos (2008) por vilatorrentino
[24 de Maio de 2019, 23:37]


Re: Mariachi Por El Mundo - Sin Fronteras (2019) por kikas66jg
[24 de Maio de 2019, 23:36]


Johnny Rivers - The Ultimate Johnny Rivers Anthology (2006) por bloco2135
[24 de Maio de 2019, 23:36]


Re: Banda Amor do Brasil - Uma Nova História! (2019) por kikas66jg
[24 de Maio de 2019, 23:34]


Re: Dona Rosa - Meiga e Abusada (2019) por kikas66jg
[24 de Maio de 2019, 23:33]


Eddy Grant - Greatest Hits (1996) por bloco2135
[24 de Maio de 2019, 23:32]


Re: Neco Belo - Neco Belo (2019) por kikas66jg
[24 de Maio de 2019, 23:32]


Re: Trio Cant'Alentejo - Queres Carne de Rola (2017) Remasterizado por jose
[24 de Maio de 2019, 23:30]


Re: Manuel Branquinho - Classicos da Renascença por jose
[24 de Maio de 2019, 23:28]


Re: Teófilo Granja - 20 Anos de Canções (2019) por jose
[24 de Maio de 2019, 23:24]


Re: Ricardo Gordo - Retrato (2019) por jose
[24 de Maio de 2019, 23:22]


Re: Jorge Loureiro - Vamos animar Portugal (2016) por vilatorrentino
[24 de Maio de 2019, 23:21]


Re: Mísia - Pura Vida (Banda Sonora) (2019) por jose
[24 de Maio de 2019, 23:20]


Re: V. A - Viva Portugal em Festa (2017) por jose
[24 de Maio de 2019, 23:17]


Re: CANAIS PORTUGAL & BRASIL + LATINO + ALL WORLD IPTV + SPORT + (EVERYDAY UPDATED ) por tv2017
[24 de Maio de 2019, 23:15]


Re: Luis Guilherme - Intemporal (2019) por jose
[24 de Maio de 2019, 23:14]


Re: Jorge Loureiro & Irene Passos - Eu Vou-lhe Ocu-par o Lugar (2019) por vilatorrentino
[24 de Maio de 2019, 23:14]


Re: Márcio Amaro - Batom (2018) por jose
[24 de Maio de 2019, 23:06]


Re: Adamo ‎– Ton Nom (LP 1967) por jose
[24 de Maio de 2019, 23:03]


Re: Conjuntos Típicos de Portugal, Vol.1 (2013) por jose
[24 de Maio de 2019, 23:01]


Re: Elena Correia - Vamos gozar a vida (Novo Single 2019) por cardoso47
[24 de Maio de 2019, 23:01]


Re: Conjuntos Típicos de Portugal, Vol.2 (2013) por jose
[24 de Maio de 2019, 23:01]


Re: ÁTOA! - Sem Medos (2019) por vitoriano
[24 de Maio de 2019, 22:58]


Re: Xana Toc Toc - Rádio Toc Toc (2019) por vitoriano
[24 de Maio de 2019, 22:56]


Re: Zé Amaro - Compilação (2019) por jose
[24 de Maio de 2019, 22:55]


Re: Gente de Zona - Otra Cosa (2019) por vitoriano
[24 de Maio de 2019, 22:54]


Re: Teófilo Granja - Um amor tão louco (2013) por jose
[24 de Maio de 2019, 22:54]


Re: Bombocas - Eles sao todos iguais (2010) por jose
[24 de Maio de 2019, 22:53]


Re: Marta Dias - Esse Meu Amor Best Of (2017) por jose
[24 de Maio de 2019, 22:52]


Re: Mão Morta - Müller no Hotel Hessischer Hof (2019) por jose
[24 de Maio de 2019, 22:51]


Re: Xutos & Pontapes - Duro - 2019 por sacana10
[24 de Maio de 2019, 22:50]


Neco Belo - Neco Belo (2019) por JPratas
[24 de Maio de 2019, 22:50]


Re: Filipe Miranda - Oopart (EP) 2019 por jose
[24 de Maio de 2019, 22:50]


Re: Isabel Mesquita - Ilhéu (2019) por jose
[24 de Maio de 2019, 22:49]


Dona Rosa - Meiga e Abusada (2019) por JPratas
[24 de Maio de 2019, 22:49]


Re: ÁTOA! - Sem Medos (2019) por jose
[24 de Maio de 2019, 22:48]


Re: Xana Toc Toc - Rádio Toc Toc (2019) por sacana10
[24 de Maio de 2019, 22:48]


Banda Amor do Brasil - Uma Nova História! (2019) por JPratas
[24 de Maio de 2019, 22:47]


Re: Xana Toc Toc - Rádio Toc Toc (2019) por jose
[24 de Maio de 2019, 22:47]


Mariachi Por El Mundo - Sin Fronteras (2019) por JPratas
[24 de Maio de 2019, 22:45]


Gente de Zona - Otra Cosa (2019) por JPratas
[24 de Maio de 2019, 22:44]


Re: Occa AFRICA 2@5w C-Band por cereal killa
[24 de Maio de 2019, 22:31]


Xana Toc Toc - Rádio Toc Toc (2019) por JPratas
[24 de Maio de 2019, 22:26]


Márcia - A Morte Saiu à Rua (Novo Single 2019) por JPratas
[24 de Maio de 2019, 22:24]


Domi - Gato Por Lebre (Novo Single 2019) por JPratas
[24 de Maio de 2019, 22:23]


ÁTOA! - Sem Medos (2019) por JPratas
[24 de Maio de 2019, 22:21]


Re: Manuel Branquinho - Classicos da Renascença por josehenriques
[24 de Maio de 2019, 22:15]


Re: Flysat Updates Daily por cereal killa
[24 de Maio de 2019, 22:12]


Re: Lyngsat Regular Updates por cereal killa
[24 de Maio de 2019, 22:11]


Re: Kingofsat Latest Frequency News por cereal killa
[24 de Maio de 2019, 22:10]


Re: Elena Correia - Vamos gozar a vida (Novo Single 2019) por vitoriano
[24 de Maio de 2019, 21:27]


Elena Correia - Vamos gozar a vida (Novo Single 2019) por M@nolo
[24 de Maio de 2019, 21:15]


Re: Teófilo Granja - Um amor tão louco (2013) por Verdegaio
[24 de Maio de 2019, 21:09]


Re: Marta Dias - Esse Meu Amor Best Of (2017) por Verdegaio
[24 de Maio de 2019, 21:07]


Re: Isabel Mesquita - Ilhéu (2019) por Verdegaio
[24 de Maio de 2019, 21:01]


Re: Easy B - Vales Zero (Novo Single 2019) por batatinha
[24 de Maio de 2019, 20:44]


Re: M'Cirilo - Tu Nem Notas (Novo Single 2019) por batatinha
[24 de Maio de 2019, 20:43]


Re: Márcia - A Presença das Formigas (Novo Single 2019) por batatinha
[24 de Maio de 2019, 20:41]


Re: Mão Morta - Müller no Hotel Hessischer Hof (2019) por batatinha
[24 de Maio de 2019, 20:41]


Re: VA - Um Disco para José Mário Branco (2019) por batatinha
[24 de Maio de 2019, 20:40]


Re: VA - Um Disco para José Mário Branco (2019) por batatinha
[24 de Maio de 2019, 20:38]


Re: Isabel Mesquita - Ilhéu (2019) por batatinha
[24 de Maio de 2019, 20:37]


Isabel Mesquita - Ilhéu (2019) por JPratas
[24 de Maio de 2019, 20:30]


Re: Conjuntos Típicos de Portugal, Vol.1 (2013) por jorgepolo
[24 de Maio de 2019, 20:09]


Re: Conjuntos Típicos de Portugal, Vol.2 (2013) por jorgepolo
[24 de Maio de 2019, 20:07]


Re: Trio Cant'Alentejo - Queres Carne de Rola (2017) Remasterizado por ekaywe
[24 de Maio de 2019, 19:57]