* Cantinho Satkeys

Refresh History
  • joaooeterno: paulo sergio
    Hoje às 13:21
  • M@nolo: Agusto Canário & Amigos - O Melhor (Edição 2020) [link]
    Hoje às 06:16
  • M@nolo: RGG45wj   Bom dia a todos e tenha uma linda semana, amigos...
    Hoje às 05:52
  • j.s.: dgtgtr a todos  4tj97u<z
    22 de Novembro de 2020, 15:44
  • Alex-Santos: Lo.a bom dia bom domingo para todas as familias     4tj97u<z
    22 de Novembro de 2020, 10:49
  • Radio TugaNet: Bom Dia Pessoal, Grande Abraço a Todos, .... Apoio ao Miguel Oliveira #88
    22 de Novembro de 2020, 08:47
  • j.s.: boa noite a todos  4tj97u<z
    20 de Novembro de 2020, 17:57
  • FELISCUNHA: ghyt74  pessoal   49E09B4F
    19 de Novembro de 2020, 11:16
  • cereal killa: try65hytr pessoal  xy7b4
    18 de Novembro de 2020, 21:26
  • j.s.: try65hytr a todos  4tj97u<z
    18 de Novembro de 2020, 20:56
  • M@nolo: Olá  try65hytr
    18 de Novembro de 2020, 20:41
  • FELISCUNHA: ghyt74  pessoal   49E09B4F
    18 de Novembro de 2020, 11:35
  • j.s.: dgtgtr a todos  4tj97u<z
    17 de Novembro de 2020, 15:45
  • boavisteiro: Muito boa tarde
    16 de Novembro de 2020, 19:18
  • FELISCUNHA: ghyt74  pessoal   4tj97u<z
    16 de Novembro de 2020, 11:26
  • j.s.: tenham um excelente domingo e ..................resguardem-se  4tj97u<z
    15 de Novembro de 2020, 11:57
  • j.s.: ghyt74 a todos  4tj97u<z
    15 de Novembro de 2020, 11:56
  • FELISCUNHA: Votos de um santo domingo para todo o auditório  4tj97u<z
    15 de Novembro de 2020, 11:01
  • andre pakete: bom dia a todos feliz domingo
    15 de Novembro de 2020, 11:00
  • j.s.: dgtgtr a todos  4tj97u<z
    14 de Novembro de 2020, 15:38

Autor Tópico: Production-Grade TypeScript (2020)  (Lida 5 vezes)

0 Membros e 1 Visitante estão a ver este tópico.

Online mitsumi

  • Moderador
  • ***
  • Mensagens: 44765
  • Karma: +0/-0
Production-Grade TypeScript (2020)
« em: 21 de Novembro de 2020, 14:30 »

Production-Grade TypeScript
WEBRip | English | MP4 + Project Files | 1920 x 1080 | AVC ~858 kbps | 29.970 fps
AAC | 129 Kbps | 48.0 KHz | 2 channels | 5h 10mn | 2.09 GB
Genre: eLearning Video / Development, Programming
Learn to use the TypeScript language at scale to increase the developer experience and productivity of your teams! Work with declaration files and definitely typed, and learn to test pure type information. You'll build a Slack app with a data layer that balances performance and safety and includes automatic detection of API surface changes. By the end, you'll be able to manage even the most ambitious TypeScript projects with confidence and ease.

Content:

01. Introduction
02. Features
03. Project Implementation
04. API Extraction
05. Converting a Project to TypeScript
06. Tests & Linting
07. Wrapping Up

 General
Complete name                            : 2- tsconfig.mp4
Format                                   : MPEG-4
Format profile                           : Base Media
Codec ID                                 : isom (isom/iso2/avc1/mp41)
File size                                : 121 MiB
Duration                                 : 16 min 57 s
Overall bit rate                         : 996 kb/s
Writing application                      : Lavf58.29.100

Video
ID                                       : 1
Format                                   : AVC
Format/Info                              : Advanced Video Codec
Format profile                           : High@L4
Format settings                          : 4 Ref Frames
Format settings, CABAC                   : No
Format settings, RefFrames               : 4 frames
Codec ID                                 : avc1
Codec ID/Info                            : Advanced Video Coding
Duration                                 : 16 min 57 s
Bit rate                                 : 858 kb/s
Width                                    : 1 920 pixels
Height                                   : 1 080 pixels
Display aspect ratio                     : 16:9
Frame rate mode                          : Constant
Frame rate                               : 29.970 (30000/1001) FPS
Color space                              : YUV
Chroma subsampling                       : 4:2:0
Bit depth                                : 8 bits
Scan type                                : Progressive
Bits/(Pixel*Frame)                       : 0.014
Stream size                              : 104 MiB (86%)

Audio
ID                                       : 2
Format                                   : AAC
Format/Info                              : Advanced Audio Codec
Format profile                           : LC
Codec ID                                 : mp4a-40-2
Duration                                 : 16 min 57 s
Bit rate mode                            : Constant
Bit rate                                 : 129 kb/s
Channel(s)                               : 2 channels
Channel positions                        : Front: L R
Sampling rate                            : 48.0 kHz
Frame rate                               : 46.875 FPS (1024 SPF)
Compression mode                         : Lossy
Stream size                              : 15.7 MiB (13%)
Default                                  : Yes
Alternate group                          : 1

Download link:
Só visivel para registados e com resposta ao tópico.

Links are Interchangeable - No Password - Single Extraction